TorrentHeap - Heap of all existing torrents
Please, pay attention to the fact that you are about to download the torrent NOT from torrentheap.com
torrentheap.com is just a torrent search engine, no torrents are hosted here.

Police Squad! - Original 1982 Naked Gun TV Series [Complete]

Infohash:

27AC50822D3EF9776D9DBDB6CAB40C1933D36447

Type:

Video TV

Title:

Police Squad! - Original 1982 Naked Gun TV Series [Complete]

Category:

Video/TV shows

Uploaded:

2005-04-27 (by befb)

Info:

http://www.imdb.com/title/tt0083466/

Description:

The complete series, amounting to six episodes. http://imdb.com/title/tt0083466

Files count:

6

Size:

1368.96 Mb

Trackers:

udp://tracker.openbittorrent.com:80
udp://open.demonii.com:1337
udp://tracker.coppersurfer.tk:6969
udp://exodus.desync.com:6969

Comments:

jay72 (2005-04-27)

het thanx u carnt beat a bit of leslie nelson lol cheers again

Rka (2005-04-27)

Can I play this on my dvd?

TorrentWhore (2005-04-27)

These are just great! :D Thank you and please keep seeding!

Rolle12 (2005-04-27)

Thanks. :)

Hansb (2005-04-29)

Skulle vara kul om någon la upp de här med svensk text.
Good torrent btw!

blueneck (2005-06-08)

what kind of file is this.

Double_M (2007-01-22)

If there is something worth thanking for........this is it!!!! Thanks alot, this is just gold!!!

STGstylah (2007-03-19)

And a BIG thanks to befb for posting this stuff!

aero87 (2007-08-14)

English spoken?

mbmyers (2008-06-16)

these are the funniest shows ever created, cheers dude, i want to have your babies

gore_freak (2008-08-16)

"i want to have your babies" man, I wanna say thankful, but I guess that's just plain wrong. And very funny, you got me laughing for a long time, man. It's because of posts like this that I read the comments. Keep up the retarded comments!

LezDawson (2008-08-24)

Thanks befb, and thanks for providing this at a reasonable size. Once I've got it I'll continue seeding until there are at least 5 of us. :)

Sundb00m (2008-10-12)

haha nice =D

englishgeezer (2009-01-19)

thanks alot mate :)

5haky8oy (2009-01-23)

The quality of especially audio (very noisy), but also video is not as good as is possible with this file size. Search the web and you can find much better quality - or download DVD quality and size.
General
Format : AVI
Format/Info : Audio Video Interleave
File size : 239 MiB
Duration : 23mn 41s
Overall bit rate : 1410 Kbps
Writing application : Nandub v1.0rc2
Writing library : Nandub build 1852/release
Video
Format : MPEG-4 Visual
Format profile : [email protected]
Format settings, BVOP : No
Format settings, QPel : No
Format settings, GMC : No warppoints
Format settings, Matrix : Default
Codec ID : XVID
Codec ID/Hint : XviD
Duration : 23mn 41s
Bit rate : 1283 Kbps
Width : 512 pixels
Height : 384 pixels
Display aspect ratio : 4/3
Frame rate : 25.000 fps
Resolution : 8 bits
Colorimetry : 4:2:0
Scan type : Progressive
Bits/(Pixel*Frame) : 0.261
Stream size : 217 MiB (91%)
Writing library : XviD 0.0.09 (UTC 2003-03-25)
Audio
Format : MPEG Audio
Format version : Version 1
Format profile : Layer 3
Codec ID : 55
Codec ID/Hint : MP3
Duration : 23mn 41s
Bit rate mode : Variable
Bit rate : 114 Kbps
Channel(s) : 2 channels
Sampling rate : 48.0 KHz
Resolution : 16 bits
Stream size : 19.3 MiB (8%)
Alignment : Aligned on interleaves
Interleave, duration : 24 ms (0.60 video frame)
Interleave, preload duration : 483 ms

joakimlarsson1 (2009-12-07)

seed please!

RIggsta (2010-01-27)

GOOD STUFF, thanks!

suede678 (2010-06-27)

Thanks!!

passing (2010-11-15)

I had laughed probably 5 times by the end of the opening credits of the first episode. Thanks a lot for this upload.

scythetleppo (2010-11-29)

He's DEAD!!

DorkyMcLame (2011-10-22)

An instant classic! They don't make shows like this anymore. Thanks for the upload :~P

Files:

1. Police Squad! - Original 1982 Naked Gun TV Series [Complete]/Police_Squad!_-_1x01_-_A_Substantial_Gift_(The_Broken_Promise).avi 238.93 Mb
2. Police Squad! - Original 1982 Naked Gun TV Series [Complete]/Police_Squad!_-_1x02_-_Ring_Of_Fear_(A_Dangerous_Assignment).avi 195.07 Mb
3. Police Squad! - Original 1982 Naked Gun TV Series [Complete]/Police_Squad!_-_1x03_-_The_Butler_Did_It_(A_Bird_In_The_Hand).avi 267.58 Mb
4. Police Squad! - Original 1982 Naked Gun TV Series [Complete]/Police_Squad!_-_1x04_-_Revenge_And_Remorse_(The_Guilty_Alibi).avi 230.83 Mb
5. Police Squad! - Original 1982 Naked Gun TV Series [Complete]/Police_Squad!_-_1x05_-_Rendezvous_At_Big_Gulch_(Terror_In_The_Neighborhood).avi 251.04 Mb
6. Police Squad! - Original 1982 Naked Gun TV Series [Complete]/Police_Squad!_-_1x06_-_Testimony_Of_Evil_(Dead_Men_Don't_Laugh).avi 185.51 Mb

Menu

TorrentHeap