TorrentHeap - Heap of all existing torrents
Please, pay attention to the fact that you are about to download the torrent NOT from torrentheap.com
torrentheap.com is just a torrent search engine, no torrents are hosted here.

The Girl Who Played with Fire (PSP + Ipod touch + Zune)

Infohash:

7027FAB792B16345E2B565F33AE5A69AF4B4B407

Type:

Video Mobile

Title:

The Girl Who Played with Fire (PSP + Ipod touch + Zune)

Category:

Video/Handheld

Uploaded:

2010-07-02 (by on.off.on)

Info:

http://www.imdb.com/title/tt1216487/

Description:

The girl who played with fire - Swedish http://www.imdb.com/title/tt1216487/ Source : The.Girl.Who.Played.With.Fire.2009.1080p.BluRay.x264-FLHD Info : ID : 1 Format : AVC Format/Info : Advanced Video Codec Format profile : [email protected] /* */ Format settings, CABAC : No Format settings, ReFrames : 3 frames Codec ID : avc1 Codec ID/Info : Advanced Video Coding Duration : 2h 9mn Bit rate mode : Variable Bit rate : 400 Kbps Width : 480 pixels Height : 272 pixels Display aspect ratio : 16:9 Frame rate mode : Variable Frame rate : 24.000 fps Minimum frame rate : 23.810 fps Maximum frame rate : 24.390 fps Color space : YUV Chroma subsampling : 4:2:0 Bit depth : 8 bits Scan type : Progressive Bits/(Pixel*Frame) : 0.128 Stream size : 370 MiB (75%) Writing library : x264 core 79 ID : 2 Format : AAC Format/Info : Advanced Audio Codec Format version : Version 4 Format profile : LC Format settings, SBR : No Codec ID : 40 Duration : 2h 9mn Bit rate mode : Variable Bit rate : 128 Kbps Maximum bit rate : 216 Kbps Channel(s) : 2 channels Channel positions : Front: L R Sampling rate : 48.0 KHz Stream size : 118 MiB (24%) Language : Swedish Screens : http://img267.imageshack.us/img267/2115/vlcsnap00001l.png http://img704.imageshack.us/img704/4834/vlcsnap00002h.png http://img32.imageshack.us/img32/3526/vlcsnap00003k.png http://img709.imageshack.us/img709/5591/vlcsnap00004j.png http://img180.imageshack.us/img180/5996/vlcsnap00005b.png http://img697.imageshack.us/img697/5555/vlcsnap00006ey.png http://img149.imageshack.us/img149/517/vlcsnap00007ra.png http://img808.imageshack.us/img808/8104/vlcsnap00008.png THIS MOVIE IS IN SWEDISH WITH ENGLISH SUBS! REASON? THE DUBBED VERSION IS A SHAME FOR THE ENTIRE MOVIE!!!! PLEASE LET THE TORRENT SEED AND SHARE IT WITH ALL YOU KNOW! Let me know what I can do to be your trusted source of Handheld videos. http://thepiratebay.se/user/on.off.on/ -OOO

Tags:

  1. the girl who played with fire
  2. psp
  3. ipod
  4. zune
  5. h264

Files count:

1

Size:

492.64 Mb

Trackers:

udp://tracker.openbittorrent.com:80
udp://open.demonii.com:1337
udp://tracker.coppersurfer.tk:6969
udp://exodus.desync.com:6969

Comments:

oer4qen (2010-07-04)

you keep your promise. you da man.

 on.off.on (2010-07-06)

@raja123456kumar check ur settings.. theres plenty of seeders on this torrent!

 Alia_Erenel (2010-07-15)

Yay ! Thanx mate.

tosif_m (2011-06-10)

Please seeeeed

intrinsic75 (2011-06-17)

I have to agree. My settings are fine, just downloaded Due Date in less than an hour, but this one is taking forever. It's been downloading for nearly 2hrs and is only at 7%.

Koori13 (2012-07-27)

Please seed!

Files:

1. The Girl Who Played with Fire (PSP + Ipod touch + Zune)/The Girl Who Played with Fire (PSP + Ipod touch + Zune)-OOO.m4v 492.57 Mb
2. The Girl Who Played with Fire (PSP + Ipod touch + Zune)/The Girl Who Played with Fire (PSP + Ipod touch + Zune)-OOO.srt 68.18 Kb

Menu

TorrentHeap